<?xml version="1.0" standalone="no"?>
<!DOCTYPE svg PUBLIC "-//W3C//DTD SVG 1.1//EN" "http://www.w3.org/Graphics/SVG/1.1/DTD/svg11.dtd" >
<svg xmlns="http://www.w3.org/2000/svg">
<metadata></metadata>
<defs>
<font id="colaboratelightregular" horiz-adv-x="999" >
<font-face units-per-em="2048" ascent="1638" descent="-410" />
<missing-glyph horiz-adv-x="499" />
<glyph horiz-adv-x="2048" />
<glyph horiz-adv-x="2048" />
<glyph unicode="&#xd;" horiz-adv-x="2048" />
<glyph unicode=" "  horiz-adv-x="499" />
<glyph unicode="&#x09;" horiz-adv-x="499" />
<glyph unicode="&#xa0;" horiz-adv-x="499" />
<glyph unicode="!" horiz-adv-x="499" d="M168 0v172h164v-172h-164zM182 348v977h135v-977h-135z" />
<glyph unicode="&#x22;" horiz-adv-x="737" d="M160 1325h137l-16 -444h-105zM442 1325h136l-17 -444h-102z" />
<glyph unicode="#" d="M27 391v107h198l54 313h-173v107h193l72 407h125l-72 -407h227l72 407h125l-72 -407h197v-107h-217l-56 -313h193v-107h-211l-68 -391h-125l68 391h-227l-68 -391h-125l68 391h-178zM350 498h225l56 313h-228z" />
<glyph unicode="$" d="M90 1001q0 156 93 239.5t249 102.5v185h121v-180q150 -7 287 -54l-52 -131q-6 3 -25 11t-26 11t-24.5 10t-28 10l-28 8t-32 7.5t-33.5 5t-38 3.5v-488q60 -23 101 -41.5t90.5 -52.5t79.5 -72.5t50.5 -98t20.5 -132.5q0 -322 -342 -371v-174h-121v166q-56 0 -119.5 10 t-103.5 19.5t-117 30.5l51 131q5 -2 32 -12.5t33.5 -12.5t29.5 -10.5t31.5 -11t29 -8.5t32.5 -8t30.5 -5t35.5 -4.5t35 -1.5v547q-52 20 -84.5 34t-77.5 37.5t-73 50t-55 62.5t-39.5 83.5t-12.5 104.5zM242 1001q0 -80 49.5 -127.5t142.5 -85.5v435q-92 -15 -142 -70.5 t-50 -151.5zM553 98q84 23 137 81.5t53 160.5q0 90 -50 144.5t-140 95.5v-482z" />
<glyph unicode="%" horiz-adv-x="1511" d="M111 997q0 351 258 351q65 0 113 -19.5t76 -51t44.5 -79t21.5 -94.5t5 -107q0 -61 -5 -108.5t-22 -97.5t-44.5 -83t-76 -54t-114.5 -21q-65 0 -112.5 21t-75 54t-43 83t-20.5 97.5t-5 108.5zM213 997q0 -52 2.5 -89t11.5 -77t25.5 -65t45.5 -41t69 -16q43 0 73 16t47 40 t26.5 64.5t12 77.5t2.5 90q0 52 -2.5 87t-11.5 74t-25.5 61.5t-46.5 37.5t-73 15q-40 0 -69.5 -17t-45.5 -43t-26 -65t-12.5 -73t-2.5 -77zM322 0l741 1288h131l-743 -1288h-129zM883 342q0 350 258 350q65 0 113 -19.5t76 -50.5t44.5 -79t21.5 -94.5t5 -106.5 q0 -61 -5 -108.5t-22 -98t-44.5 -83.5t-76 -54t-114.5 -21q-65 0 -112.5 21t-75 54t-43 83.5t-20.5 98t-5 108.5zM985 342q0 -52 2.5 -89t11.5 -77.5t25.5 -65.5t45.5 -41t69 -16q43 0 73 16t47 40.5t26.5 65t12 77.5t2.5 90q0 52 -2.5 87t-11.5 73.5t-25.5 61t-46.5 37.5 t-73 15q-40 0 -69.5 -17t-45.5 -42.5t-26 -64.5t-12.5 -73t-2.5 -77z" />
<glyph unicode="&#x26;" d="M94 354q0 265 244 383q-8 6 -38.5 27.5t-46.5 34t-42 38.5t-40 49t-25 57t-11 71q0 73 17.5 132t54.5 107t101.5 74.5t152.5 26.5q325 0 325 -322q0 -116 -77 -193.5t-230 -142.5q-81 -35 -131 -73t-82.5 -104.5t-32.5 -160.5q0 -40 9 -78.5t30 -75.5t52 -65t79 -45.5 t107 -17.5q67 0 131.5 45.5t106.5 114.5v249h-211v101h344v-299q0 -49 5 -106.5t11.5 -110t7.5 -70.5h-119l-28 111q-42 -62 -108.5 -101t-147.5 -39q-86 0 -159 23t-129 69t-88 120.5t-32 170.5zM274 1016q0 -28 9.5 -54.5t20.5 -44.5t33 -40t34.5 -32t38 -29t30.5 -23 q34 14 60 27.5t55.5 35t48.5 45.5t32 58.5t13 74.5q0 104 -42.5 159.5t-149.5 55.5q-183 0 -183 -233z" />
<glyph unicode="'" horiz-adv-x="499" d="M182 1325h135l-16 -444h-102z" />
<glyph unicode="(" horiz-adv-x="563" d="M117 520q0 184 23.5 321.5t64.5 240t119 243.5h122q-108 -199 -147 -371t-39 -434q0 -229 39.5 -397.5t157.5 -384.5h-123q-128 222 -172.5 385t-44.5 397z" />
<glyph unicode=")" horiz-adv-x="563" d="M109 -262q118 215 157 383.5t39 398.5q0 262 -39 434t-147 371h123q78 -141 119 -243.5t64.5 -240t23.5 -321.5q0 -234 -44.5 -396.5t-173.5 -385.5h-122z" />
<glyph unicode="*" horiz-adv-x="798" d="M27 1014l39 112l282 -106l12 10l-14 297h115l-17 -301l13 -8l280 106l35 -112l-293 -72l-2 -12l191 -244l-93 -66l-163 254h-15l-170 -254l-92 68l193 242l-6 12z" />
<glyph unicode="+" d="M74 383v113h360v372h129v-372h363v-113h-363v-383h-129v383h-360z" />
<glyph unicode="," horiz-adv-x="499" d="M57 -211l115 365h158l-166 -365h-107z" />
<glyph unicode="-" horiz-adv-x="669" d="M59 438v119h551v-119h-551z" />
<glyph unicode="." horiz-adv-x="499" d="M170 0v170h160v-170h-160z" />
<glyph unicode="/" horiz-adv-x="520" d="M-23 -20l439 1368h125l-437 -1368h-127z" />
<glyph unicode="0" d="M76 631q0 637 422 637q79 0 141.5 -18.5t106.5 -49.5t76 -79t51 -99.5t30.5 -119.5t15 -130.5t3.5 -140.5q0 -79 -3.5 -142.5t-14.5 -134.5t-30 -124.5t-51.5 -104.5t-76.5 -84t-107.5 -52.5t-142.5 -19.5q-78 0 -141 20t-106.5 53t-75 84.5t-50 105t-29.5 124.5 t-14.5 134t-3.5 141zM229 631q0 -71 1.5 -122t8 -112t17.5 -103.5t31 -84.5t47.5 -67.5t68.5 -41.5t93 -16q43 0 78.5 10.5t62 26.5t47 44.5t34.5 56t23.5 69.5t14.5 76t8 85t3.5 87.5t0.5 91.5q0 71 -1.5 119.5t-7.5 108t-17 98.5t-31 79.5t-48.5 63.5t-70 38t-94.5 15 q-50 0 -91 -16.5t-68.5 -44t-48 -69.5t-32 -84.5t-18.5 -98.5t-9 -103.5t-2 -105.5z" />
<glyph unicode="1" d="M229 997l295 246h142v-1245h-150v1081l-235 -202z" />
<glyph unicode="2" d="M78 125q32 30 111 99.5t139.5 123.5t137 132t127.5 143t86.5 137.5t35.5 132.5q0 138 -64.5 200t-191.5 62q-72 0 -134 -21.5t-167 -72.5l-52 129q112 45 191.5 62.5t165.5 17.5q87 0 158.5 -20.5t127 -63t86.5 -115t31 -170.5q0 -53 -18.5 -111t-46 -109t-73 -110 t-85.5 -103t-99 -101t-97 -91t-96 -85t-81 -72h625v-119h-768z" />
<glyph unicode="3" d="M72 18l51 129q4 -2 25.5 -10t28 -10t26 -9t30 -9.5t30 -7.5t34 -7t34.5 -5t40.5 -4t42.5 -1q119 0 198.5 60t79.5 182q0 67 -19.5 116t-52.5 78.5t-84.5 47.5t-106.5 24t-128 6v111q68 0 118.5 5t98.5 20t78 40t48 67.5t18 100.5q0 61 -17.5 104t-50 66t-72 33t-90.5 10 q-66 0 -132 -23.5t-155 -66.5l-51 129q66 33 164 54.5t176 21.5q180 0 280.5 -81t100.5 -243q0 -132 -77 -204t-197 -87q46 -7 87 -21.5t82 -40.5t70 -61.5t47.5 -89t18.5 -118.5q0 -78 -24.5 -140t-65.5 -102t-98.5 -66t-119 -36.5t-130.5 -10.5q-109 0 -179.5 9.5 t-156.5 39.5z" />
<glyph unicode="4" d="M61 467l551 776h148v-784h196v-115h-196v-344h-150v344h-495zM184 459h426v606z" />
<glyph unicode="5" d="M111 14l49 129q147 -59 295 -59q147 0 220 82t73 229q0 138 -64 211.5t-174 73.5q-48 0 -100.5 -15t-79 -27t-76.5 -38l-113 45v598h705v-115h-555v-376q15 4 46 13t52 14.5t55 10.5t70 5q185 0 284 -106t99 -298q0 -198 -121 -310t-323 -112q-205 0 -342 45z" />
<glyph unicode="6" d="M92 580q0 101 17.5 198t57 186.5t96 157t140 108t183.5 40.5q130 0 258 -35l-49 -129q-46 18 -67 25.5t-58 15.5t-74 8q-114 0 -197.5 -71.5t-125.5 -193.5t-42 -280q43 92 123 148.5t168 56.5q187 0 286 -113.5t99 -308.5q0 -176 -110 -300t-283 -124 q-103 0 -179.5 35.5t-122 91.5t-73.5 139t-37.5 164.5t-9.5 180.5zM250 498q0 -117 17 -198t52 -128t82.5 -67.5t114.5 -20.5q107 0 172.5 83t65.5 226q0 309 -236 309q-59 0 -107 -20.5t-79.5 -55t-50 -64.5t-31.5 -64z" />
<glyph unicode="7" d="M90 1126v117h727l53 -113l-467 -1130h-165l497 1126h-645z" />
<glyph unicode="8" d="M76 303q0 132 79.5 221.5t219.5 130.5q-1 0 -26.5 12t-38 18t-41 23t-45 31t-39 37.5t-35 47.5t-22 56.5t-9.5 67.5q0 158 101 240t284 82q191 0 290 -76t99 -244q0 -54 -21.5 -102t-53 -80.5t-70 -57.5t-70.5 -38.5t-57 -18.5q150 -47 226.5 -132.5t76.5 -217.5 q0 -334 -430 -334q-63 0 -118 8.5t-112 31t-97 59t-65.5 96.5t-25.5 139zM223 305q0 -108 72 -165.5t199 -57.5q128 0 204 55.5t76 167.5q0 206 -274 293q-56 -17 -98 -37t-86.5 -53.5t-68.5 -85t-24 -117.5zM264 944q0 -47 22.5 -88.5t59.5 -70t74 -47.5t76 -31 q55 13 109.5 42.5t97 82.5t42.5 114q0 111 -59.5 161t-181.5 50q-240 0 -240 -213z" />
<glyph unicode="9" d="M92 846q0 114 49 211t139 155t203 58q86 0 154.5 -23.5t113.5 -68t76.5 -99.5t47.5 -127.5t23 -141.5t7 -151q0 -101 -17.5 -198t-56.5 -186.5t-95.5 -157t-140 -108t-183.5 -40.5q-130 0 -258 35l51 129q49 -20 67 -26.5t55 -14.5t74 -8q114 0 197.5 71.5t125.5 193.5 t42 280q-43 -92 -123 -148.5t-168 -56.5q-186 0 -284.5 113.5t-98.5 308.5zM244 846q0 -309 235 -309q59 0 107 20.5t79.5 54.5t50.5 64.5t32 64.5q0 155 -32 248t-88.5 129.5t-146.5 36.5q-107 0 -172 -83t-65 -226z" />
<glyph unicode=":" horiz-adv-x="499" d="M170 0v170h160v-170h-160zM170 756v170h160v-170h-160z" />
<glyph unicode=";" horiz-adv-x="499" d="M57 -211l107 365h166l-166 -365h-107zM164 756v170h160v-170h-160z" />
<glyph unicode="&#x3c;" d="M72 387v162l854 346v-143l-717 -285l717 -283v-141z" />
<glyph unicode="=" d="M72 199v118h854v-118h-854zM72 553v119h854v-119h-854z" />
<glyph unicode="&#x3e;" d="M72 43v141l716 287l-716 281v143l854 -346v-162z" />
<glyph unicode="?" horiz-adv-x="839" d="M104 1284q176 62 308 62q61 0 111 -8t98.5 -29.5t82 -56t54 -91t20.5 -131.5q0 -49 -18.5 -93t-47.5 -76.5t-64.5 -63t-71 -60.5t-64.5 -60.5t-47.5 -69.5t-18.5 -83v-188h-141v199q0 65 24 119.5t60.5 89.5t78.5 70t78.5 63t60.5 68t24 85q0 106 -52 152.5t-167 46.5 q-55 0 -134 -21.5t-137 -50.5zM295 0v172h164v-172h-164z" />
<glyph unicode="@" horiz-adv-x="1722" d="M168 655q0 133 37.5 245.5t105.5 194.5t161.5 139.5t207.5 85.5t242 28q92 0 180.5 -20.5t171 -66t144.5 -110t99 -160t37 -209.5q0 -136 -47.5 -239.5t-132 -165t-192 -91.5t-236.5 -30q-196 0 -316 104.5t-120 294.5q0 108 46 196.5t138 143t215 54.5q96 0 176 -31 v-395l72 10l41 -107l-233 -28v436q-30 10 -60 10q-114 0 -186 -72.5t-72 -212.5q0 -81 25 -141t68.5 -94t96 -50t113.5 -16q465 0 465 422q0 121 -41 213t-111.5 145t-156.5 79t-184 26q-95 0 -181.5 -19.5t-167 -64.5t-139.5 -111.5t-94 -167.5t-35 -225q0 -126 35.5 -227 t94 -167t139 -110t166.5 -62.5t180 -18.5q121 0 215 16t219 57l49 -112q-217 -66 -490 -66q-225 0 -392 79.5t-260 236t-93 374.5z" />
<glyph unicode="A" horiz-adv-x="1294" d="M68 0l538 1325h123l500 -1325h-168l-141 395h-545l-150 -395h-157zM418 508h463l-222 629z" />
<glyph unicode="B" horiz-adv-x="1187" d="M201 0v1325h360q104 0 179.5 -14.5t139 -51t96 -106.5t32.5 -174q0 -101 -58 -176.5t-153 -108.5q128 -26 200 -105.5t72 -211.5q0 -88 -23 -155t-61.5 -108.5t-96.5 -67.5t-120 -36t-139 -10h-428zM350 117h266q56 0 98 6t81 22.5t64 45t39.5 75.5t14.5 111 q0 75 -24.5 125.5t-71 76.5t-99.5 36t-124 10h-244v-508zM350 739h240q117 0 190.5 59t73.5 179q0 133 -68 182t-225 49h-211v-469z" />
<glyph unicode="C" horiz-adv-x="1112" d="M129 662q0 116 17 214t58 186.5t104 150.5t161.5 98.5t224.5 36.5q170 0 322 -50l-51 -131q-149 64 -271 64q-409 0 -409 -567q0 -582 397 -582q70 0 137.5 18.5t159.5 55.5l51 -131q-171 -60 -348 -60q-148 0 -257 51.5t-172.5 147t-93.5 219t-30 279.5z" />
<glyph unicode="D" horiz-adv-x="1286" d="M201 0v1325h323q344 0 488.5 -149.5t144.5 -507.5q0 -359 -147.5 -513.5t-485.5 -154.5h-323zM350 117h193q235 0 346.5 132t111.5 417q0 208 -48.5 325.5t-150 167t-278.5 49.5h-174v-1091z" />
<glyph unicode="E" horiz-adv-x="1097" d="M201 0v1325h733v-117h-584v-465h541v-116h-541v-510h602v-117h-751z" />
<glyph unicode="F" horiz-adv-x="1048" d="M201 0v1325h733v-119h-584v-471h559v-114h-559v-621h-149z" />
<glyph unicode="G" horiz-adv-x="1220" d="M129 664q0 157 32.5 279.5t100 214.5t179.5 141t264 49q117 0 305 -50l-52 -131q-146 64 -251 64q-215 0 -318.5 -139t-103.5 -428q0 -102 10.5 -184t38.5 -158t73 -127.5t117 -82t168 -30.5q115 0 264 82v373h-292v118h428v-575q-119 -61 -205.5 -88t-200.5 -27 q-128 0 -227 39t-160.5 103.5t-100.5 156.5t-54 189t-15 211z" />
<glyph unicode="H" horiz-adv-x="1325" d="M201 0v1325h149v-582h625v582h149v-1325h-149v625h-625v-625h-149z" />
<glyph unicode="I" horiz-adv-x="501" d="M176 0v1325h150v-1325h-150z" />
<glyph unicode="J" horiz-adv-x="815" d="M37 0q16 3 49 9q143 27 207 58q153 76 170 275q2 27 2 55v928h149v-907q0 -88 -18.5 -161t-44 -123t-73 -92t-84 -65.5t-100.5 -46.5t-99 -32.5t-100 -24.5q-11 -3 -17 -4z" />
<glyph unicode="K" horiz-adv-x="1206" d="M201 0v1325h149v-602l588 602h164l-610 -629l682 -696h-197l-627 639v-639h-149z" />
<glyph unicode="L" horiz-adv-x="972" d="M201 0v1325h149v-1202h606v-123h-755z" />
<glyph unicode="M" horiz-adv-x="1716" d="M201 0v1325h229l432 -1116l436 1116h218v-1325h-146v1163l-452 -1163h-123l-457 1163v-1163h-137z" />
<glyph unicode="N" horiz-adv-x="1380" d="M201 0v1325h213l620 -1149v1149h146v-1325h-217l-625 1149v-1149h-137z" />
<glyph unicode="O" horiz-adv-x="1392" d="M129 657q0 121 18.5 222.5t61.5 189.5t108 149t163 95.5t222 34.5q126 0 223 -34t160.5 -94t104 -148.5t57.5 -189.5t17 -225q0 -122 -18 -223.5t-60 -189.5t-106 -149t-160.5 -95.5t-219.5 -34.5q-129 0 -228 34.5t-163.5 94.5t-105 149t-57.5 190t-17 224zM285 657 q0 -136 21 -238t68 -179.5t128.5 -117.5t197.5 -40q117 0 198 41t126 120t64.5 179.5t19.5 234.5q0 138 -20 239.5t-66 178.5t-126.5 116.5t-195.5 39.5q-116 0 -197.5 -39.5t-128.5 -117t-68 -179.5t-21 -238z" />
<glyph unicode="P" horiz-adv-x="1136" d="M201 0v1325h383q214 0 328 -88.5t114 -288.5q0 -389 -420 -389h-256v-559h-149zM350 676h240q143 0 212.5 59.5t69.5 212.5q0 78 -20 130t-60 80t-90.5 39t-121.5 11h-230v-532z" />
<glyph unicode="Q" horiz-adv-x="1392" d="M129 657q0 121 18.5 222.5t61 189.5t107.5 149t163 95.5t223 34.5q126 0 223 -34t160.5 -94t104 -148.5t57.5 -189.5t17 -225q0 -122 -18 -223.5t-60 -189.5t-106 -149t-160.5 -95.5t-219.5 -34.5q-129 0 -228 34.5t-163.5 94.5t-105 149t-57.5 190t-17 224zM285 657 q0 -136 21 -238t68 -179.5t128.5 -117.5t197.5 -40q117 0 198 41t126 120t64.5 179.5t19.5 234.5q0 138 -20 239.5t-66 178.5t-126.5 116.5t-195.5 39.5q-116 0 -197.5 -39.5t-128.5 -117t-68 -179.5t-21 -238zM649 -170l56 90l434 -37l-54 -116z" />
<glyph unicode="R" horiz-adv-x="1202" d="M201 0v1325h413q85 0 156 -17.5t133 -56.5t97.5 -111t35.5 -171q0 -76 -18.5 -138.5t-60 -115t-116 -84t-177.5 -35.5l446 -596h-184l-437 592h-139v-592h-149zM350 709h277q256 0 256 260q0 117 -66.5 178t-191.5 61h-275v-499z" />
<glyph unicode="S" horiz-adv-x="1124" d="M139 25l51 131q63 -24 102 -37t97 -25t109 -12t95 7t88 25t75 46.5t50 74.5t19 105q0 42 -11 76.5t-35.5 61.5t-49 46.5t-67 39t-72 31t-81.5 30.5q-11 4 -17 6q-64 23 -105.5 41t-93.5 50t-82 67.5t-51 90t-21 121.5q0 73 25.5 132t68.5 98.5t103 66t127.5 38.5 t142.5 12q169 0 328 -54l-51 -131q-54 24 -81 34t-83 22t-115 12q-145 0 -228 -58t-83 -172q0 -38 14.5 -70t35.5 -53.5t59 -43t69.5 -35t81.5 -31.5q157 -56 215 -86q159 -84 197 -227q14 -51 14 -111q0 -379 -483 -379q-138 0 -357 60z" />
<glyph unicode="T" horiz-adv-x="1040" d="M53 1206v119h934v-119h-393v-1206h-150v1206h-391z" />
<glyph unicode="U" horiz-adv-x="1388" d="M201 489v836h149v-815q0 -126 21 -209.5t67.5 -131.5t111 -67.5t159.5 -19.5q173 0 251 98t78 330v815h150v-840q0 -264 -117.5 -392t-361.5 -128q-267 0 -387.5 127.5t-120.5 396.5z" />
<glyph unicode="V" horiz-adv-x="1236" d="M61 1325h166l406 -1122l385 1122h160l-484 -1325h-131z" />
<glyph unicode="W" horiz-adv-x="1800" d="M74 1325h157l283 -1126l311 1071h174l293 -1073l291 1128h143l-352 -1325h-174l-299 1053l-315 -1053h-178z" />
<glyph unicode="X" horiz-adv-x="1185" d="M66 0l442 684l-387 641h174l303 -510l320 510h161l-405 -629l434 -696h-182l-338 569l-361 -569h-161z" />
<glyph unicode="Y" horiz-adv-x="1150" d="M33 1325h170l387 -598l371 598h157l-461 -729v-596h-149v588z" />
<glyph unicode="Z" horiz-adv-x="1103" d="M92 127l756 1079h-680v119h795l49 -127l-758 -1079h741v-119h-856z" />
<glyph unicode="[" horiz-adv-x="557" d="M172 -260v1644h291v-102h-162v-1434h162v-108h-291z" />
<glyph unicode="\" horiz-adv-x="520" d="M-23 1348h127l437 -1368h-127z" />
<glyph unicode="]" horiz-adv-x="557" d="M102 -150h162v1436h-162v100h291v-1644h-291v108z" />
<glyph unicode="^" d="M72 551l370 774h109l379 -774h-142l-290 612l-291 -612h-135z" />
<glyph unicode="_" horiz-adv-x="1024" d="M-2 -104h1028v-105h-1028v105z" />
<glyph unicode="`" horiz-adv-x="425" d="M39 1325h151l197 -240h-106z" />
<glyph unicode="a" horiz-adv-x="980" d="M96 246q0 60 14 107t48.5 88.5t91 69t144 43t204.5 15.5h90v72q0 102 -42.5 157.5t-143.5 55.5q-152 0 -320 -82l-47 115q189 71 369 71q149 0 234 -75.5t85 -225.5v-370q0 -33 4.5 -76t12.5 -107.5t12 -103.5h-119q-1 6 -17.5 53t-17.5 58q-39 -56 -108.5 -95 t-153.5 -39q-151 0 -245.5 67.5t-94.5 201.5zM238 250q0 -78 56 -123t157 -45q81 0 143.5 33.5t95.5 91.5v262h-63q-216 0 -302.5 -51t-86.5 -168z" />
<glyph unicode="b" horiz-adv-x="1005" d="M125 0q18 176 18 287v1059h133v-549q37 62 112.5 111.5t160.5 49.5q96 0 167 -38.5t112.5 -107t61 -153.5t19.5 -186q0 -103 -23 -191t-69.5 -157t-124 -108.5t-178.5 -39.5q-80 0 -144 39t-100 95l-28 -111h-117zM272 225q82 -143 230 -143q135 0 201.5 99t66.5 288 q0 200 -67 292.5t-179 92.5q-44 0 -83 -16t-64 -36.5t-48.5 -52.5t-33.5 -51t-23 -45v-428z" />
<glyph unicode="c" horiz-adv-x="886" d="M96 461q0 236 103 366.5t317 130.5q59 0 146 -19.5t143 -41.5l-47 -113q-57 29 -125.5 49.5t-118.5 20.5q-149 0 -213.5 -101.5t-64.5 -291.5q0 -379 276 -379q48 0 119.5 20t130.5 50l47 -113q-51 -25 -146 -43.5t-153 -18.5q-208 0 -311 129.5t-103 354.5z" />
<glyph unicode="d" horiz-adv-x="1005" d="M96 473q0 134 41.5 242t128 175.5t205.5 67.5q86 0 153 -46.5t105 -110.5v545h133v-1059q0 -43 2 -82.5t3.5 -58.5t7.5 -72t8 -74h-117l-31 111q-37 -56 -100 -95t-143 -39q-107 0 -185.5 39t-123.5 109t-66 156.5t-21 191.5zM236 469q0 -191 64.5 -289t203.5 -98 q147 0 229 143v428q-14 29 -23.5 47t-32.5 51t-46.5 52.5t-61 35t-80.5 15.5q-111 0 -182 -95.5t-71 -289.5z" />
<glyph unicode="e" horiz-adv-x="985" d="M96 459q0 70 11 136t39 133t71 117t112.5 81.5t157.5 31.5q91 0 160 -25.5t114 -71t73 -114t39.5 -147.5t11.5 -178h-645q10 -342 272 -342q140 0 291 80l41 -111q-154 -72 -348 -72q-103 0 -181.5 38.5t-125 105.5t-70 152.5t-23.5 185.5zM238 526h514q-3 168 -67 248 t-196 80q-111 0 -177.5 -84.5t-73.5 -243.5z" />
<glyph unicode="f" horiz-adv-x="571" d="M31 831v105h141v98q0 78 33.5 142t88 104.5t117 63.5t126.5 28l34 -115q-127 -8 -196.5 -62.5t-69.5 -147.5v-111h213v-105h-213v-831h-133v831h-141z" />
<glyph unicode="g" horiz-adv-x="1015" d="M80 -147q0 71 59 124.5t125 69.5q-125 54 -125 158q0 46 23.5 80t66.5 71q-20 23 -29.5 35.5t-30.5 47t-31.5 78.5t-10.5 95q0 37 9 78t35.5 90.5t66.5 87.5t108.5 64t155.5 26q88 0 155 -24q268 21 289 22l-41 -102h-133q43 -34 77 -98.5t34 -139.5q0 -68 -21.5 -130 t-65 -114t-118.5 -83t-172 -31q-42 0 -105.5 13t-91.5 30q-5 -7 -17.5 -21.5t-17 -21.5t-9.5 -19.5t-5 -25.5q0 -26 19 -44t82.5 -34t177.5 -26q101 -9 174 -25t118 -37t71.5 -51t36 -61.5t9.5 -73.5q0 -89 -61.5 -151t-156 -89t-212.5 -27q-235 0 -336.5 66.5t-101.5 192.5 zM219 -145q0 -73 75.5 -115.5t223.5 -42.5q291 0 291 164q0 61 -96.5 92t-343.5 55q-69 -16 -109.5 -62t-40.5 -91zM266 608q0 -112 61.5 -179t180.5 -67q63 0 110.5 22t73.5 59t38.5 80t12.5 91q0 116 -60 178t-177 62q-118 0 -179 -68.5t-61 -177.5z" />
<glyph unicode="h" horiz-adv-x="1001" d="M143 0v1346h133v-549q36 62 106 111.5t159 49.5q317 0 317 -358v-600h-133v573q0 66 -7.5 112.5t-28.5 87t-63 61t-106 20.5q-87 0 -153 -63.5t-91 -135.5v-655h-133z" />
<glyph unicode="i" horiz-adv-x="425" d="M139 1165v160h148v-160h-148zM147 0v936h134v-936h-134z" />
<glyph unicode="j" horiz-adv-x="417" d="M-53 -211q107 23 148.5 68.5t41.5 136.5v942h133v-924q0 -137 -69 -217t-211 -121zM129 1165v160h150v-160h-150z" />
<glyph unicode="k" horiz-adv-x="903" d="M143 0v1346h133v-795l398 385h149l-424 -406l473 -530h-161l-435 489v-489h-133z" />
<glyph unicode="l" horiz-adv-x="419" d="M143 0v1346h133v-1346h-133z" />
<glyph unicode="m" horiz-adv-x="1576" d="M125 936h117l30 -139q40 59 110 110t153 51q61 0 108 -13t80 -39.5t55.5 -58t42.5 -75.5q47 76 122 131t167 55q163 0 243.5 -87.5t80.5 -272.5v-598h-134v594q0 45 -4.5 80.5t-18 70.5t-35.5 58t-59 37t-87 14q-83 0 -149.5 -63.5t-96.5 -145.5v-645h-133v594 q0 260 -203 260q-79 0 -145 -62.5t-93 -134.5v-657h-133v721q0 35 -3 71t-8 78.5t-7 65.5z" />
<glyph unicode="n" horiz-adv-x="1001" d="M125 936h117l28 -139q2 2 16 18.5t21 25t24.5 26t31 27.5t35 24t41.5 21.5t45.5 13t52.5 5.5q176 0 248.5 -96t72.5 -272v-590h-133v582q0 48 -4 84t-16.5 73t-34.5 61t-60.5 39t-91.5 15q-84 0 -148.5 -61t-93.5 -138v-655h-133v737q0 46 -8.5 114t-9.5 85z" />
<glyph unicode="o" horiz-adv-x="1017" d="M96 473q0 80 13 149.5t43.5 132.5t77 107t118 70t162.5 26q92 0 163 -25t117.5 -68t76.5 -105t42.5 -132.5t12.5 -154.5t-12.5 -155.5t-43 -135.5t-77 -108.5t-117.5 -70.5t-162 -26t-162.5 26t-118 70t-77 108t-43.5 135.5t-13 156.5zM236 473q0 -88 13.5 -156 t44 -122.5t85 -83.5t131.5 -29q78 0 132 28t84 82.5t43 122t13 158.5q0 90 -13.5 157t-44 119t-84 78.5t-130.5 26.5q-274 0 -274 -381z" />
<glyph unicode="p" horiz-adv-x="1005" d="M125 936h117l32 -141q40 63 110.5 113t150.5 50q83 0 148 -26.5t107 -71t69 -108.5t38.5 -135t11.5 -154q0 -80 -14 -151.5t-44 -133t-73.5 -106t-106.5 -70t-139 -25.5q-162 0 -256 129v-475h-133v1024q0 131 -18 281zM274 223q19 -26 30.5 -39.5t35.5 -36.5t47 -34.5 t59 -21t78 -9.5q112 0 179 94.5t67 290.5q0 189 -62 288t-200 99q-79 0 -142.5 -60.5t-91.5 -138.5v-432z" />
<glyph unicode="q" horiz-adv-x="1005" d="M96 463q0 103 22 190t66.5 156.5t120 109t174.5 39.5q80 0 145.5 -49t106.5 -114l35 141h117q-21 -175 -21 -281v-1024h-133v475q-94 -129 -256 -129q-78 0 -141 25.5t-106.5 70t-73 106.5t-43 133t-13.5 151zM236 467q0 -196 67 -290.5t180 -94.5q51 0 91.5 11.5t71 37 t45.5 42t40 50.5v432q-28 78 -90.5 138.5t-140.5 60.5q-131 0 -197.5 -101t-66.5 -286z" />
<glyph unicode="r" horiz-adv-x="702" d="M125 936h117l28 -191q16 32 37 63t52 68t70 59.5t79 22.5q94 0 168 -45l-47 -112q-26 23 -67 38t-81 15q-27 0 -52.5 -15t-44 -35t-37.5 -51.5t-29.5 -54t-24 -52.5t-17.5 -38v-608h-133v727q0 41 -3.5 81t-8.5 77.5t-6 50.5z" />
<glyph unicode="s" horiz-adv-x="849" d="M88 37l47 113q99 -41 150 -54.5t129 -13.5q99 0 150.5 44t51.5 124q0 21 -7 39.5t-15.5 32t-28.5 27t-32.5 21t-43 19t-43.5 15.5t-49 16q-40 13 -62.5 21t-59.5 23.5t-59 29t-48.5 35t-41 44.5t-24.5 54t-10 67q0 72 29 125t79 82t109 43t127 14q69 0 132 -14t159 -49 l-47 -113q-14 6 -42.5 19.5t-39.5 18.5t-33.5 13.5t-38.5 11.5t-39 6t-49 3q-94 0 -149.5 -37t-55.5 -117q0 -29 14.5 -51.5t47.5 -40t59.5 -27.5t77.5 -26q138 -42 194 -75q132 -78 132 -228q0 -92 -50.5 -156t-127 -91.5t-170.5 -27.5q-187 0 -322 60z" />
<glyph unicode="t" horiz-adv-x="520" d="M31 831v105h141v240h133v-240h215v-105h-215v-606q0 -104 60.5 -155t191.5 -70l-43 -121q-168 33 -255 123t-87 225v604h-141z" />
<glyph unicode="u" horiz-adv-x="989" d="M143 346v590h133v-582q0 -48 4 -84t16.5 -73t33.5 -61t58.5 -39t88.5 -15q83 0 143.5 60t90.5 139v655h133v-737q0 -45 9 -110.5t11 -88.5h-116l-31 139q-3 -3 -21.5 -26t-30 -36t-36 -34.5t-47 -34t-55.5 -22t-68 -9.5q-170 0 -243 97.5t-73 271.5z" />
<glyph unicode="v" horiz-adv-x="1001" d="M82 936h143l283 -762l276 762h138l-361 -936h-117z" />
<glyph unicode="w" horiz-adv-x="1458" d="M78 936h141l234 -766l219 676h123l204 -672l248 762h133l-319 -936h-133l-201 659l-217 -659h-137z" />
<glyph unicode="x" horiz-adv-x="921" d="M51 0l336 473l-313 463h159l236 -358l244 358h141l-317 -449l333 -487h-161l-248 381l-264 -381h-146z" />
<glyph unicode="y" horiz-adv-x="995" d="M82 936h143l299 -743l254 743h135l-391 -1086q-41 -113 -101.5 -174t-182.5 -104l-43 117q146 40 180 133l82 217z" />
<glyph unicode="z" horiz-adv-x="839" d="M76 113l538 718h-489v105h592l47 -113l-537 -719h512v-104h-616z" />
<glyph unicode="{" horiz-adv-x="731" d="M98 487v113q49 2 80.5 27t45.5 66.5t20.5 95t11.5 112t13.5 117.5t31.5 113t59.5 96t103 68.5t157.5 29.5v-111q-84 0 -136.5 -30.5t-73.5 -81t-29.5 -113t-12.5 -130.5t-14 -128.5t-42 -112.5t-88 -77q58 -21 91 -70t43 -109t14.5 -128.5t13 -133t29.5 -116.5t72 -83.5 t133 -31.5v-111q-90 2 -155.5 27.5t-101.5 67.5t-58 95t-30.5 112t-13.5 118t-12 113t-22 96.5t-47 69t-83 30.5z" />
<glyph unicode="|" horiz-adv-x="499" d="M188 -340v1778h121v-1778h-121z" />
<glyph unicode="}" horiz-adv-x="731" d="M111 -131q82 0 133 31.5t71.5 83.5t29 116.5t13 133t15 128.5t43 109t90.5 70q-56 25 -88 77t-41.5 112.5t-13.5 128.5t-12.5 130.5t-29.5 113t-73.5 81t-136.5 30.5v111q91 -3 157.5 -29.5t103 -68.5t59 -96t31 -113t13.5 -117.5t11.5 -112t20.5 -95t45.5 -66.5 t80.5 -27v-113q-51 -4 -83 -30.5t-47 -69t-22 -96.5t-12 -113t-13.5 -118t-30.5 -112t-57.5 -95t-101 -67.5t-155.5 -27.5v111z" />
<glyph unicode="~" d="M53 379q0 100 66.5 157.5t171.5 57.5q55 0 115.5 -24.5t104 -54.5t93 -54.5t84.5 -24.5q68 0 105.5 37.5t37.5 108.5l115 -58q0 -98 -70.5 -156.5t-173.5 -58.5q-55 0 -116.5 25t-105.5 55t-93 55t-82 25q-69 0 -103 -35t-34 -112z" />
<glyph unicode="&#xa1;" horiz-adv-x="499" d="M168 1153v172h164v-172h-164zM184 0v977h133v-977h-133z" />
<glyph unicode="&#xa2;" horiz-adv-x="866" d="M96 461q0 449 346 493v189h117v-187q105 -10 225 -59l-47 -113q-89 47 -178 62v-758q87 13 182 64l47 -113q-84 -41 -229 -57v-185h-117v185q-174 21 -260 148t-86 331zM236 461q0 -328 206 -369v754q-206 -41 -206 -385z" />
<glyph unicode="&#xa3;" d="M96 678v113h148v53q0 90 18.5 164t45 124t74 90t86.5 62.5t103 42.5t103 27.5t106 19.5l41 -131q-12 -2 -35 -5q-43 -6 -64.5 -9.5t-61 -11.5t-61.5 -17t-54.5 -24.5t-51 -34t-40.5 -46.5t-33 -61.5t-19 -79t-8 -98.5v-65h357v-113h-357v-555h555v-123h-844v123h140v555 h-148z" />
<glyph unicode="&#xa4;" d="M0 481l35 117h158q0 10 -1.5 32t-1.5 32q0 38 3 79h-193l35 119h170q17 109 53.5 195t97 153t154 103.5t213.5 36.5q161 0 324 -56l-39 -131q-151 70 -285 70q-87 0 -152 -27.5t-106.5 -79.5t-66 -116t-38.5 -148h568l-37 -119h-543q-2 -27 -2 -77q0 -12 1 -34t1 -32h504 l-35 -117h-459q11 -91 34.5 -160t64 -124.5t104.5 -85t150 -29.5q48 0 103 13.5t84.5 24.5t105.5 42v-150q-81 -25 -142.5 -36t-150.5 -11q-120 0 -211.5 37t-151 107t-94.5 161.5t-51 210.5h-203z" />
<glyph unicode="&#xa5;" d="M12 1325h168l332 -594l319 594h154l-381 -690h277v-113h-299v-145h299v-113h-299v-264h-150v264h-297v113h297v145h-297v113h271z" />
<glyph unicode="&#xa6;" horiz-adv-x="499" d="M184 -160v479h129v-479h-129zM184 735v479h129v-479h-129z" />
<glyph unicode="&#xa7;" horiz-adv-x="935" d="M121 678q0 162 139 223q-106 64 -106 182q0 72 29.5 125t80 82.5t109.5 43.5t127 14q119 0 270 -64l-47 -117q-49 27 -72 38.5t-64 22.5t-85 11q-205 0 -205 -149q0 -40 28.5 -68t74.5 -45t101 -33t110 -38t101 -51.5t74.5 -82t28.5 -123.5q0 -72 -37.5 -125.5 t-99.5 -81.5q100 -67 100 -200q0 -70 -28 -124t-76.5 -86.5t-109 -48.5t-130.5 -16q-163 0 -301 60l49 118q10 -4 33.5 -14.5t32 -14t28 -11t30 -10.5t28.5 -8t32 -6.5t33 -3t39 -1.5q197 0 197 164q0 48 -28.5 82t-73.5 54t-100 36t-110 35.5t-100 46t-73.5 73.5t-28.5 111 zM264 682q0 -31 16 -54.5t49 -40.5t63.5 -27.5t81 -25.5t79.5 -26q119 40 119 139q0 31 -12 56t-27 40.5t-48 31t-53.5 22.5t-67 20.5t-67.5 20.5q-133 -22 -133 -156z" />
<glyph unicode="&#xa8;" horiz-adv-x="573" d="M-8 1176v149h133v-149h-133zM301 1176v149h133v-149h-133z" />
<glyph unicode="&#xa9;" horiz-adv-x="1474" d="M51 664q0 142 53.5 269t145.5 218t219 144t268 53q144 0 271 -52.5t218 -143t144 -217.5t53 -271q0 -142 -53.5 -269t-145.5 -218t-219 -144t-268 -53t-268 53t-219 144t-145.5 218t-53.5 269zM152 664q0 -160 77.5 -297t212.5 -218t295 -81t295 81t213 218t78 297 q0 162 -77 299t-212 217t-297 80q-163 0 -297.5 -80t-211 -216.5t-76.5 -299.5zM381 659q0 69 11 128t37 112t66 90.5t101 59.5t139 22q101 0 205 -33l-33 -88q-98 41 -172 41q-59 0 -103.5 -17.5t-72.5 -47t-45.5 -72.5t-24 -89t-6.5 -103q0 -340 246 -340q71 0 189 47 l30 -88q-115 -39 -219 -39q-179 0 -263.5 112t-84.5 305z" />
<glyph unicode="&#xaa;" d="M268 936q0 87 66.5 134.5t234.5 47.5h54v33q0 55 -24.5 80.5t-86.5 25.5q-102 0 -193 -43l-28 74q112 39 221 39q91 0 147 -41.5t56 -122.5v-205q0 -15 18 -157h-84q0 4 -9.5 28.5t-10.5 30.5q-24 -31 -65 -51.5t-91 -20.5q-90 0 -147.5 37.5t-57.5 110.5zM362 938 q0 -82 119 -82q47 0 84.5 22t59.5 56v117h-39q-125 0 -174.5 -25t-49.5 -88z" />
<glyph unicode="&#xab;" horiz-adv-x="745" d="M68 553l190 373h131l-199 -369l197 -369h-129zM360 553l191 373h131l-199 -369l197 -369h-129z" />
<glyph unicode="&#xac;" d="M41 586v112h905v-477h-129v365h-776z" />
<glyph unicode="&#xad;" horiz-adv-x="669" d="M59 438v119h551v-119h-551z" />
<glyph unicode="&#xae;" horiz-adv-x="1474" d="M51 664q0 142 53.5 269t145.5 218t219 144t268 53q144 0 271 -52.5t218 -143t144 -217.5t53 -271q0 -142 -53.5 -269t-145.5 -218t-219 -144t-268 -53t-268 53t-219 144t-145.5 218t-53.5 269zM152 664q0 -160 77.5 -297t212.5 -218t295 -81t295 81t213 218t78 297 q0 162 -77 299t-212 217t-297 80q-163 0 -297.5 -80t-211 -216.5t-76.5 -299.5zM483 264v797h260q53 0 98.5 -11t84.5 -34.5t61.5 -67t22.5 -102.5q0 -95 -56.5 -158.5t-181.5 -69.5l283 -354h-121l-277 354h-75v-354h-99zM582 696h170q155 0 155 150q0 69 -37.5 102 t-119.5 33h-168v-285z" />
<glyph unicode="&#xaf;" horiz-adv-x="425" d="M-25 1159v121h476v-121h-476z" />
<glyph unicode="&#xb0;" horiz-adv-x="798" d="M98 958q0 127 88 213t213 86t213 -86t88 -213q0 -126 -88.5 -208t-214.5 -82q-125 0 -212 81.5t-87 208.5zM211 958q0 -76 56 -131t130 -55q75 0 133 55.5t58 130.5q0 85 -53.5 140t-135.5 55t-135 -55t-53 -140z" />
<glyph unicode="&#xb1;" d="M72 2v119h854v-119h-854zM74 506v112h360v250h129v-250h363v-112h-363v-260h-129v260h-360z" />
<glyph unicode="&#xb2;" horiz-adv-x="679" d="M94 723q22 19 81.5 66t104.5 85.5t94.5 87t77 94.5t27.5 85q0 74 -38 102.5t-117 28.5q-83 0 -183 -51l-28 82q116 45 213 45q110 0 183 -51.5t73 -155.5q0 -38 -19.5 -80t-47 -76t-71 -74.5t-77 -67.5t-80 -63t-66.5 -53h367v-78h-465z" />
<glyph unicode="&#xb3;" horiz-adv-x="679" d="M102 659l29 82q36 -12 50.5 -16.5t51 -11t74.5 -6.5q170 0 170 120q0 86 -60.5 116t-176.5 30v71q52 0 88 4.5t67.5 17t47.5 38t16 63.5q0 63 -36.5 84t-105.5 21q-64 0 -172 -49l-28 82q39 19 97.5 31t104.5 12q111 0 176.5 -45t65.5 -134q0 -73 -46.5 -112t-119.5 -47 q77 -11 131 -54.5t54 -128.5q0 -54 -24 -93.5t-65.5 -60.5t-88 -30.5t-99.5 -9.5q-120 0 -201 26z" />
<glyph unicode="&#xb4;" horiz-adv-x="425" d="M39 1085l197 240h151l-242 -240h-106z" />
<glyph unicode="&#xb6;" horiz-adv-x="1105" d="M164 977q0 39 6 75t20 77.5t42 75t68 61.5t102.5 43.5t140.5 15.5h448v-1710h-129v1597h-207q-99 0 -160 -60t-61 -177q0 -88 61 -148t140 -82v-1130h-129v1022q-94 7 -163.5 40.5t-106.5 83.5t-54.5 104t-17.5 112z" />
<glyph unicode="&#xb7;" horiz-adv-x="499" d="M164 492v178h172v-178h-172z" />
<glyph unicode="&#xb8;" horiz-adv-x="425" d="M6 -358l37 104q116 -14 139 -14q41 0 70 17.5t29 51.5q0 24 -10 37.5t-47 22t-107 8.5l43 162h114l-20 -92q70 0 108.5 -41.5t38.5 -92.5q0 -85 -55.5 -132.5t-152.5 -47.5q-62 0 -187 17z" />
<glyph unicode="&#xb9;" horiz-adv-x="679" d="M162 1190l176 135h94v-684h-102v582l-137 -111z" />
<glyph unicode="&#xba;" d="M250 1079q0 117 61 193t191 76q68 0 117.5 -21t77.5 -59t40.5 -84.5t12.5 -104.5q0 -123 -58.5 -197.5t-189.5 -74.5t-191.5 74.5t-60.5 197.5zM342 1079q0 -98 37.5 -150t122.5 -52q155 0 155 202q0 100 -35.5 149.5t-119.5 49.5q-160 0 -160 -199z" />
<glyph unicode="&#xbb;" horiz-adv-x="745" d="M63 926h132l190 -373l-190 -365h-129l196 369zM356 926h131l191 -373l-191 -365h-129l197 369z" />
<glyph unicode="&#xbc;" horiz-adv-x="1511" d="M133 1190l174 135h94v-684h-100v582l-139 -111zM236 0l743 1288h129l-750 -1288h-122zM758 258l332 426h98v-426h108v-76h-108v-182h-101v182h-296zM844 258h243v315z" />
<glyph unicode="&#xbd;" horiz-adv-x="1511" d="M129 1190l176 135h94v-684h-102v582l-137 -111zM231 0l742 1288h131l-742 -1288h-131zM870 80q24 21 82.5 66t104.5 83.5t95 85.5t77 92.5t28 84.5q0 74 -38 102.5t-117 28.5q-82 0 -184 -52l-29 84q111 43 215 43q110 0 182 -51t72 -155q0 -45 -24 -93t-71 -96 t-84.5 -81t-99.5 -81t-80 -63h365v-78h-463z" />
<glyph unicode="&#xbe;" horiz-adv-x="1511" d="M94 659l31 82q36 -12 50.5 -16.5t51 -11t74.5 -6.5q168 0 168 120q0 86 -60 116t-176 30v71q52 0 87.5 4.5t67.5 17t47.5 38t15.5 63.5q0 63 -36 84t-104 21q-64 0 -172 -49l-30 82q39 18 98 30.5t106 12.5q110 0 175 -45t65 -134q0 -73 -45.5 -112t-118.5 -47 q77 -11 129.5 -54.5t52.5 -128.5q0 -54 -23.5 -93.5t-64 -60.5t-87 -30.5t-99.5 -9.5q-122 0 -203 26zM293 0l741 1288h129l-743 -1288h-127zM805 258l332 426h98v-426h108v-76h-108v-182h-100v182h-297zM891 258h244v315z" />
<glyph unicode="&#xbf;" horiz-adv-x="839" d="M104 295q0 49 18.5 93t47.5 76.5t64.5 63t71 60.5t64.5 60.5t47.5 69.5t18.5 83v188h139v-198q0 -77 -33.5 -138.5t-80.5 -101.5t-94.5 -76t-81 -81.5t-33.5 -98.5q0 -106 52 -152.5t167 -46.5q55 0 133.5 21.5t136.5 50.5l37 -127q-173 -61 -307 -61q-77 0 -137.5 13.5 t-115 46.5t-84.5 97.5t-30 157.5zM424 1153v172h162v-172h-162z" />
<glyph unicode="&#xc0;" horiz-adv-x="1294" d="M68 0l538 1325h123l500 -1325h-168l-141 395h-545l-150 -395h-157zM418 508h463l-222 629zM502 1640h157l191 -239h-107z" />
<glyph unicode="&#xc1;" horiz-adv-x="1294" d="M68 0l538 1325h123l500 -1325h-168l-141 395h-545l-150 -395h-157zM418 508h463l-222 629zM489 1397l197 239h152l-242 -239h-107z" />
<glyph unicode="&#xc2;" horiz-adv-x="1294" d="M68 0l538 1325h123l500 -1325h-168l-141 395h-545l-150 -395h-157zM418 508h463l-222 629zM422 1432l182 225h119l178 -225h-110l-127 143l-132 -143h-110z" />
<glyph unicode="&#xc3;" horiz-adv-x="1294" d="M68 0l538 1325h123l500 -1325h-168l-141 395h-545l-150 -395h-157zM391 1442q34 78 74.5 107.5t112.5 29.5q37 0 100 -38t90 -38q63 0 90 84l90 -41q-22 -61 -67 -98t-109 -37q-40 0 -103.5 40t-93.5 40q-67 0 -94 -88zM418 508h463l-222 629z" />
<glyph unicode="&#xc4;" horiz-adv-x="1294" d="M68 0l538 1325h123l500 -1325h-168l-141 395h-545l-150 -395h-157zM418 508h463l-222 629zM442 1411v150h133v-150h-133zM752 1411v150h133v-150h-133z" />
<glyph unicode="&#xc5;" horiz-adv-x="1294" d="M68 0l538 1325h123l500 -1325h-168l-141 395h-545l-150 -395h-157zM418 508h463l-222 629zM518 1542q0 70 49.5 119t120.5 49q72 0 121 -48t49 -120q0 -70 -49.5 -119t-120.5 -49q-69 0 -119.5 49.5t-50.5 118.5zM588 1544q0 -36 29 -68t71 -32q47 0 72.5 29.5t25.5 70.5 q0 43 -27 72t-71 29q-43 0 -71.5 -31t-28.5 -70z" />
<glyph unicode="&#xc6;" horiz-adv-x="1843" d="M68 0l751 1325h860v-117h-696l84 -465h569v-116h-546l92 -510h516v-117h-649l-68 395h-526l-219 -395h-168zM514 508h447l-107 622z" />
<glyph unicode="&#xc7;" horiz-adv-x="1112" d="M129 662q0 116 17 214t58 186.5t104 150.5t161.5 98.5t224.5 36.5q170 0 322 -50l-51 -131q-149 64 -271 64q-409 0 -409 -567q0 -582 397 -582q70 0 137.5 18.5t159.5 55.5l51 -131q-164 -57 -317 -60l-4 -26q70 0 109.5 -41.5t39.5 -92.5q0 -84 -57 -132t-154 -48 q-61 0 -186 17l35 106q22 -3 53.5 -7.5t50.5 -6.5t37 -2q41 0 69.5 17.5t28.5 51.5q0 24 -10 37.5t-47 22t-107 8.5l27 102q-125 14 -217 70.5t-146.5 149t-80 209.5t-25.5 262z" />
<glyph unicode="&#xc8;" horiz-adv-x="1097" d="M201 0v1325h733v-117h-584v-465h541v-116h-541v-510h602v-117h-751zM367 1642h151l197 -239h-107z" />
<glyph unicode="&#xc9;" horiz-adv-x="1097" d="M201 0v1325h733v-117h-584v-465h541v-116h-541v-510h602v-117h-751zM424 1386l197 240h151l-242 -240h-106z" />
<glyph unicode="&#xca;" horiz-adv-x="1097" d="M201 0v1325h733v-117h-584v-465h541v-116h-541v-510h602v-117h-751zM332 1411l182 225h119l178 -225h-111l-127 143l-131 -143h-110z" />
<glyph unicode="&#xcb;" horiz-adv-x="1097" d="M201 0v1325h733v-117h-584v-465h541v-116h-541v-510h602v-117h-751zM354 1411v150h133v-150h-133zM664 1411v150h133v-150h-133z" />
<glyph unicode="&#xcc;" horiz-adv-x="501" d="M61 1657h119l230 -240h-107zM180 0v1325h150v-1325h-150z" />
<glyph unicode="&#xcd;" horiz-adv-x="501" d="M84 1417l197 240h151l-242 -240h-106zM176 0v1325h150v-1325h-150z" />
<glyph unicode="&#xce;" horiz-adv-x="501" d="M12 1427l183 226h118l179 -226h-111l-127 144l-131 -144h-111zM176 0v1325h150v-1325h-150z" />
<glyph unicode="&#xcf;" horiz-adv-x="501" d="M31 1440v149h133v-149h-133zM178 0v1325h150v-1325h-150zM340 1440v149h133v-149h-133z" />
<glyph unicode="&#xd0;" horiz-adv-x="1286" d="M59 694v111h142v520h323q344 0 488.5 -149.5t144.5 -507.5q0 -359 -147.5 -513.5t-485.5 -154.5h-323v694h-142zM350 117h193q235 0 346.5 132t111.5 417q0 208 -48.5 325.5t-150 167t-278.5 49.5h-174v-403h307v-111h-307v-577z" />
<glyph unicode="&#xd1;" horiz-adv-x="1380" d="M201 0v1325h213l620 -1149v1149h146v-1325h-217l-625 1149v-1149h-137zM389 1438q34 78 74 107.5t112 29.5q37 0 100.5 -38t90.5 -38q63 0 90 84l90 -41q-22 -61 -67 -98t-109 -37q-40 0 -103.5 40t-93.5 40q-67 0 -94 -88z" />
<glyph unicode="&#xd2;" horiz-adv-x="1392" d="M129 657q0 121 18.5 222.5t61.5 189.5t108 149t163 95.5t222 34.5q126 0 223 -34t160.5 -94t104 -148.5t57.5 -189.5t17 -225q0 -122 -18 -223.5t-60 -189.5t-106 -149t-160.5 -95.5t-219.5 -34.5q-129 0 -228 34.5t-163.5 94.5t-105 149t-57.5 190t-17 224zM285 657 q0 -136 21 -238t68 -179.5t128.5 -117.5t197.5 -40q117 0 198 41t126 120t64.5 179.5t19.5 234.5q0 138 -20 239.5t-66 178.5t-126.5 116.5t-195.5 39.5q-116 0 -197.5 -39.5t-128.5 -117t-68 -179.5t-21 -238zM467 1642h151l197 -239h-106z" />
<glyph unicode="&#xd3;" horiz-adv-x="1392" d="M129 657q0 121 18.5 222.5t61.5 189.5t108 149t163 95.5t222 34.5q126 0 223 -34t160.5 -94t104 -148.5t57.5 -189.5t17 -225q0 -122 -18 -223.5t-60 -189.5t-106 -149t-160.5 -95.5t-219.5 -34.5q-129 0 -228 34.5t-163.5 94.5t-105 149t-57.5 190t-17 224zM285 657 q0 -136 21 -238t68 -179.5t128.5 -117.5t197.5 -40q117 0 198 41t126 120t64.5 179.5t19.5 234.5q0 138 -20 239.5t-66 178.5t-126.5 116.5t-195.5 39.5q-116 0 -197.5 -39.5t-128.5 -117t-68 -179.5t-21 -238zM575 1397l197 239h152l-242 -239h-107z" />
<glyph unicode="&#xd4;" horiz-adv-x="1392" d="M129 657q0 121 18.5 222.5t61.5 189.5t108 149t163 95.5t222 34.5q126 0 223 -34t160.5 -94t104 -148.5t57.5 -189.5t17 -225q0 -122 -18 -223.5t-60 -189.5t-106 -149t-160.5 -95.5t-219.5 -34.5q-129 0 -228 34.5t-163.5 94.5t-105 149t-57.5 190t-17 224zM285 657 q0 -136 21 -238t68 -179.5t128.5 -117.5t197.5 -40q117 0 198 41t126 120t64.5 179.5t19.5 234.5q0 138 -20 239.5t-66 178.5t-126.5 116.5t-195.5 39.5q-116 0 -197.5 -39.5t-128.5 -117t-68 -179.5t-21 -238zM459 1411l182 225h119l178 -225h-111l-127 143l-131 -143h-110 z" />
<glyph unicode="&#xd5;" horiz-adv-x="1392" d="M129 657q0 121 18.5 222.5t61.5 189.5t108 149t163 95.5t222 34.5q126 0 223 -34t160.5 -94t104 -148.5t57.5 -189.5t17 -225q0 -122 -18 -223.5t-60 -189.5t-106 -149t-160.5 -95.5t-219.5 -34.5q-129 0 -228 34.5t-163.5 94.5t-105 149t-57.5 190t-17 224zM285 657 q0 -136 21 -238t68 -179.5t128.5 -117.5t197.5 -40q117 0 198 41t126 120t64.5 179.5t19.5 234.5q0 138 -20 239.5t-66 178.5t-126.5 116.5t-195.5 39.5q-116 0 -197.5 -39.5t-128.5 -117t-68 -179.5t-21 -238zM420 1438q34 78 74 107.5t112 29.5q37 0 100.5 -38t90.5 -38 q63 0 90 84l90 -41q-22 -61 -67 -98t-109 -37q-40 0 -103.5 40t-93.5 40q-67 0 -94 -88z" />
<glyph unicode="&#xd6;" horiz-adv-x="1392" d="M129 657q0 121 18.5 222.5t61.5 189.5t108 149t163 95.5t222 34.5q126 0 223 -34t160.5 -94t104 -148.5t57.5 -189.5t17 -225q0 -122 -18 -223.5t-60 -189.5t-106 -149t-160.5 -95.5t-219.5 -34.5q-129 0 -228 34.5t-163.5 94.5t-105 149t-57.5 190t-17 224zM285 657 q0 -136 21 -238t68 -179.5t128.5 -117.5t197.5 -40q117 0 198 41t126 120t64.5 179.5t19.5 234.5q0 138 -20 239.5t-66 178.5t-126.5 116.5t-195.5 39.5q-116 0 -197.5 -39.5t-128.5 -117t-68 -179.5t-21 -238zM477 1411v150h133v-150h-133zM786 1411v150h134v-150h-134z " />
<glyph unicode="&#xd7;" d="M100 152l312 311l-312 309l90 90l312 -311l309 311l90 -90l-311 -309l311 -311l-90 -91l-309 312l-312 -312z" />
<glyph unicode="&#xd8;" horiz-adv-x="1392" d="M33 -2l184 217q-88 166 -88 442q0 121 18.5 222.5t61.5 189.5t108 149t163 95.5t222 34.5q237 0 373 -123l162 188l98 -90l-170 -201q99 -166 99 -465q0 -122 -18 -223.5t-60 -189.5t-106 -149t-160.5 -95.5t-219.5 -34.5q-259 0 -397 144l-172 -203zM285 657 q0 -199 41 -315l661 778q-100 111 -287 111q-116 0 -197.5 -39.5t-128.5 -117t-68 -179.5t-21 -238zM393 215q100 -133 307 -133q117 0 198 41t126 120t64.5 179.5t19.5 234.5q0 214 -51 338z" />
<glyph unicode="&#xd9;" horiz-adv-x="1388" d="M201 489v836h149v-815q0 -126 21 -209.5t67.5 -131.5t111 -67.5t159.5 -19.5q173 0 251 98t78 330v815h150v-840q0 -264 -117.5 -392t-361.5 -128q-267 0 -387.5 127.5t-120.5 396.5zM481 1642h152l196 -239h-106z" />
<glyph unicode="&#xda;" horiz-adv-x="1388" d="M201 489v836h149v-815q0 -126 21 -209.5t67.5 -131.5t111 -67.5t159.5 -19.5q173 0 251 98t78 330v815h150v-840q0 -264 -117.5 -392t-361.5 -128q-267 0 -387.5 127.5t-120.5 396.5zM553 1391l197 239h151l-242 -239h-106z" />
<glyph unicode="&#xdb;" horiz-adv-x="1388" d="M201 489v836h149v-815q0 -126 21 -209.5t67.5 -131.5t111 -67.5t159.5 -19.5q173 0 251 98t78 330v815h150v-840q0 -264 -117.5 -392t-361.5 -128q-267 0 -387.5 127.5t-120.5 396.5zM451 1411l182 225h119l178 -225h-111l-127 143l-131 -143h-110z" />
<glyph unicode="&#xdc;" horiz-adv-x="1388" d="M201 489v836h149v-815q0 -126 21 -209.5t67.5 -131.5t111 -67.5t159.5 -19.5q173 0 251 98t78 330v815h150v-840q0 -264 -117.5 -392t-361.5 -128q-267 0 -387.5 127.5t-120.5 396.5zM483 1411v150h133v-150h-133zM793 1411v150h133v-150h-133z" />
<glyph unicode="&#xdd;" horiz-adv-x="1150" d="M33 1325h170l387 -598l371 598h157l-461 -729v-596h-149v588zM422 1417l196 240h152l-242 -240h-106z" />
<glyph unicode="&#xde;" horiz-adv-x="1136" d="M201 0v1325h149v-278h234q214 0 328 -88.5t114 -288.5q0 -389 -420 -389h-256v-281h-149zM350 397h240q143 0 212.5 60t69.5 213q0 78 -20 130t-60 80t-90.5 39t-121.5 11h-230v-533z" />
<glyph unicode="&#xdf;" horiz-adv-x="1011" d="M143 0v965q0 196 75 288.5t243 92.5q66 0 123.5 -17.5t103 -52t72 -92.5t26.5 -133q0 -34 -9 -67t-23 -59t-35.5 -52.5t-40 -44.5t-44 -38t-41 -30.5t-36.5 -24t-25 -16.5q114 -47 160 -74q218 -130 219 -362q0 -400 -497 -400l43 115q70 0 126 15t101 47.5t69.5 90 t24.5 136.5q0 67 -27 125.5t-65.5 96t-91.5 69t-93.5 47.5t-82.5 28v109q99 64 144 109q88 91 89 186q0 48 -17.5 85t-46.5 58t-61 31t-65 10q-100 0 -142.5 -55t-42.5 -199v-987h-133z" />
<glyph unicode="&#xe0;" horiz-adv-x="980" d="M96 246q0 60 14 107t48.5 88.5t91 69t144 43t204.5 15.5h90v72q0 102 -42.5 157.5t-143.5 55.5q-152 0 -320 -82l-47 115q189 71 369 71q149 0 234 -75.5t85 -225.5v-370q0 -33 4.5 -76t12.5 -107.5t12 -103.5h-119q-1 6 -17.5 53t-17.5 58q-39 -56 -108.5 -95 t-153.5 -39q-151 0 -245.5 67.5t-94.5 201.5zM221 1325h152l196 -240h-106zM238 250q0 -78 56 -123t157 -45q81 0 143.5 33.5t95.5 91.5v262h-63q-216 0 -302.5 -51t-86.5 -168z" />
<glyph unicode="&#xe1;" horiz-adv-x="980" d="M96 246q0 60 14 107t48.5 88.5t91 69t144 43t204.5 15.5h90v72q0 102 -42.5 157.5t-143.5 55.5q-152 0 -320 -82l-47 115q189 71 369 71q149 0 234 -75.5t85 -225.5v-370q0 -33 4.5 -76t12.5 -107.5t12 -103.5h-119q-1 6 -17.5 53t-17.5 58q-39 -56 -108.5 -95 t-153.5 -39q-151 0 -245.5 67.5t-94.5 201.5zM238 250q0 -78 56 -123t157 -45q81 0 143.5 33.5t95.5 91.5v262h-63q-216 0 -302.5 -51t-86.5 -168zM344 1085l197 240h151l-241 -240h-107z" />
<glyph unicode="&#xe2;" horiz-adv-x="980" d="M96 246q0 60 14 107t48.5 88.5t91 69t144 43t204.5 15.5h90v72q0 102 -42.5 157.5t-143.5 55.5q-152 0 -320 -82l-47 115q189 71 369 71q149 0 234 -75.5t85 -225.5v-370q0 -33 4.5 -76t12.5 -107.5t12 -103.5h-119q-1 6 -17.5 53t-17.5 58q-39 -56 -108.5 -95 t-153.5 -39q-151 0 -245.5 67.5t-94.5 201.5zM221 1100l182 225h119l178 -225h-110l-127 143l-131 -143h-111zM238 250q0 -78 56 -123t157 -45q81 0 143.5 33.5t95.5 91.5v262h-63q-216 0 -302.5 -51t-86.5 -168z" />
<glyph unicode="&#xe3;" horiz-adv-x="980" d="M96 246q0 60 14 107t48.5 88.5t91 69t144 43t204.5 15.5h90v72q0 102 -42.5 157.5t-143.5 55.5q-152 0 -320 -82l-47 115q189 71 369 71q149 0 234 -75.5t85 -225.5v-370q0 -33 4.5 -76t12.5 -107.5t12 -103.5h-119q-1 6 -17.5 53t-17.5 58q-39 -56 -108.5 -95 t-153.5 -39q-151 0 -245.5 67.5t-94.5 201.5zM182 1135q34 78 74.5 107.5t112.5 29.5q37 0 100 -38t90 -38q63 0 90 84l90 -41q-22 -61 -67 -98t-109 -37q-40 0 -103 40t-93 40q-68 0 -95 -88zM238 250q0 -78 56 -123t157 -45q81 0 143.5 33.5t95.5 91.5v262h-63 q-216 0 -302.5 -51t-86.5 -168z" />
<glyph unicode="&#xe4;" horiz-adv-x="980" d="M96 246q0 60 14 107t48.5 88.5t91 69t144 43t204.5 15.5h90v72q0 102 -42.5 157.5t-143.5 55.5q-152 0 -320 -82l-47 115q189 71 369 71q149 0 234 -75.5t85 -225.5v-370q0 -33 4.5 -76t12.5 -107.5t12 -103.5h-119q-1 6 -17.5 53t-17.5 58q-39 -56 -108.5 -95 t-153.5 -39q-151 0 -245.5 67.5t-94.5 201.5zM238 250q0 -78 56 -123t157 -45q81 0 143.5 33.5t95.5 91.5v262h-63q-216 0 -302.5 -51t-86.5 -168zM262 1112v158h133v-158h-133zM573 1112v158h136v-158h-136z" />
<glyph unicode="&#xe5;" horiz-adv-x="980" d="M96 246q0 60 14 107t48.5 88.5t91 69t144 43t204.5 15.5h90v72q0 102 -42.5 157.5t-143.5 55.5q-152 0 -320 -82l-47 115q189 71 369 71q149 0 234 -75.5t85 -225.5v-370q0 -33 4.5 -76t12.5 -107.5t12 -103.5h-119q-1 6 -17.5 53t-17.5 58q-39 -56 -108.5 -95 t-153.5 -39q-151 0 -245.5 67.5t-94.5 201.5zM238 250q0 -78 56 -123t157 -45q81 0 143.5 33.5t95.5 91.5v262h-63q-216 0 -302.5 -51t-86.5 -168zM322 1206q0 70 49.5 119t120.5 49q72 0 121 -48t49 -120q0 -70 -49.5 -119t-120.5 -49q-69 0 -119.5 49.5t-50.5 118.5z M391 1208q0 -36 29.5 -68t71.5 -32q47 0 72.5 29.5t25.5 70.5q0 43 -27 72t-71 29q-43 0 -72 -31t-29 -70z" />
<glyph unicode="&#xe6;" horiz-adv-x="1572" d="M96 246q0 60 14 107t48.5 88.5t91 69t144 43t204.5 15.5h96v72q0 213 -192 213q-152 0 -320 -82l-47 115q189 71 369 71q102 0 174.5 -40t105.5 -117q96 157 291 157q93 0 163 -26t114.5 -71t71.5 -114t38 -147t11 -178h-646q10 -342 273 -342q129 0 280 80l43 -111 q-154 -72 -340 -72q-118 0 -201.5 52t-119.5 133q-65 -91 -141.5 -138t-184.5 -47q-151 0 -245.5 67.5t-94.5 201.5zM238 250q0 -78 56 -123t157 -45q77 0 142.5 43.5t100.5 105.5v234h-67q-147 0 -232 -22.5t-121 -68.5t-36 -124zM825 526h514q-3 168 -66.5 248t-195.5 80 q-111 0 -178 -84.5t-74 -243.5z" />
<glyph unicode="&#xe7;" horiz-adv-x="866" d="M96 461q0 233 106 363t314 130q59 0 128.5 -15.5t117.5 -35.5l-27 -123q-109 72 -221 72q-281 0 -281 -391q0 -171 70.5 -274t208.5 -103q105 0 229 74l29 -129q-95 -38 -219 -49l-10 -41q69 0 108 -42.5t39 -91.5q0 -78 -56 -128t-151 -50q-75 0 -186 15l16 102 q132 -16 160 -16q40 0 71 19.5t31 53.5q0 24 -11 38t-48.5 23t-107.5 9l30 113q-166 24 -253 151t-87 326z" />
<glyph unicode="&#xe8;" horiz-adv-x="985" d="M96 459q0 70 11 136t39 133t71 117t112.5 81.5t157.5 31.5q91 0 160 -25.5t114 -71t73 -114t39.5 -147.5t11.5 -178h-645q10 -342 272 -342q140 0 291 80l41 -111q-154 -72 -348 -72q-103 0 -181.5 38.5t-125 105.5t-70 152.5t-23.5 185.5zM238 526h514q-3 168 -67 248 t-196 80q-111 0 -177.5 -84.5t-73.5 -243.5zM252 1325h151l197 -240h-106z" />
<glyph unicode="&#xe9;" horiz-adv-x="985" d="M96 459q0 70 11 136t39 133t71 117t112.5 81.5t157.5 31.5q91 0 160 -25.5t114 -71t73 -114t39.5 -147.5t11.5 -178h-645q10 -342 272 -342q140 0 291 80l41 -111q-154 -72 -348 -72q-103 0 -181.5 38.5t-125 105.5t-70 152.5t-23.5 185.5zM238 526h514q-3 168 -67 248 t-196 80q-111 0 -177.5 -84.5t-73.5 -243.5zM344 1085l197 240h151l-241 -240h-107z" />
<glyph unicode="&#xea;" horiz-adv-x="985" d="M96 459q0 70 11 136t39 133t71 117t112.5 81.5t157.5 31.5q91 0 160 -25.5t114 -71t73 -114t39.5 -147.5t11.5 -178h-645q10 -342 272 -342q140 0 291 80l41 -111q-154 -72 -348 -72q-103 0 -181.5 38.5t-125 105.5t-70 152.5t-23.5 185.5zM238 526h514q-3 168 -67 248 t-196 80q-111 0 -177.5 -84.5t-73.5 -243.5zM250 1100l182 225h119l178 -225h-111l-126 143l-132 -143h-110z" />
<glyph unicode="&#xeb;" horiz-adv-x="985" d="M96 459q0 70 11 136t39 133t71 117t112.5 81.5t157.5 31.5q91 0 160 -25.5t114 -71t73 -114t39.5 -147.5t11.5 -178h-645q10 -342 272 -342q140 0 291 80l41 -111q-154 -72 -348 -72q-103 0 -181.5 38.5t-125 105.5t-70 152.5t-23.5 185.5zM238 526h514q-3 168 -67 248 t-196 80q-111 0 -177.5 -84.5t-73.5 -243.5zM283 1135v149h133v-149h-133zM592 1135v149h133v-149h-133z" />
<glyph unicode="&#xec;" horiz-adv-x="425" d="M29 1325h151l197 -240h-107zM147 0v936h134v-936h-134z" />
<glyph unicode="&#xed;" horiz-adv-x="425" d="M41 1085l197 240h151l-242 -240h-106zM150 0v936h133v-936h-133z" />
<glyph unicode="&#xee;" horiz-adv-x="425" d="M-27 1100l183 225h118l179 -225h-111l-127 143l-131 -143h-111zM145 0v936h134v-936h-134z" />
<glyph unicode="&#xef;" horiz-adv-x="425" d="M-8 1163v150h133v-150h-133zM150 0v936h133v-936h-133zM301 1163v150h133v-150h-133z" />
<glyph unicode="&#xf0;" horiz-adv-x="997" d="M92 393q0 195 98.5 308.5t284.5 113.5q88 0 168 -56.5t123 -148.5q0 381 -225 523l-176 -119l-109 63l162 109q-72 30 -191 47l-53 133q219 -25 367 -96l155 106l107 -63l-156 -105q258 -188 258 -628q0 -99 -9.5 -180.5t-37.5 -164.5t-73.5 -139t-122 -91.5 t-179.5 -35.5q-115 0 -205 58.5t-138 154.5t-48 211zM244 393q0 -143 65 -226t172 -83q90 0 146.5 36.5t88.5 129.5t32 248q-13 34 -32 64.5t-50.5 64.5t-79.5 54.5t-107 20.5q-235 0 -235 -309z" />
<glyph unicode="&#xf1;" horiz-adv-x="1001" d="M125 936h117l28 -139q2 2 16 18.5t21 25t24.5 26t31 27.5t35 24t41.5 21.5t45.5 13t52.5 5.5q176 0 248.5 -96t72.5 -272v-590h-133v582q0 48 -4 84t-16.5 73t-34.5 61t-60.5 39t-91.5 15q-84 0 -148.5 -61t-93.5 -138v-655h-133v737q0 46 -8.5 114t-9.5 85zM229 1135 q34 78 74.5 107.5t112.5 29.5q37 0 100 -38t90 -38q63 0 90 84l90 -41q-22 -61 -67 -98t-109 -37q-40 0 -103 40t-93 40q-68 0 -95 -88z" />
<glyph unicode="&#xf2;" horiz-adv-x="1017" d="M96 473q0 80 13 149.5t43.5 132.5t77 107t118 70t162.5 26q92 0 163 -25t117.5 -68t76.5 -105t42.5 -132.5t12.5 -154.5t-12.5 -155.5t-43 -135.5t-77 -108.5t-117.5 -70.5t-162 -26t-162.5 26t-118 70t-77 108t-43.5 135.5t-13 156.5zM236 473q0 -88 13.5 -156 t44 -122.5t85 -83.5t131.5 -29q78 0 132 28t84 82.5t43 122t13 158.5q0 90 -13.5 157t-44 119t-84 78.5t-130.5 26.5q-274 0 -274 -381zM297 1325h152l196 -240h-106z" />
<glyph unicode="&#xf3;" horiz-adv-x="1017" d="M96 473q0 80 13 149.5t43.5 132.5t77 107t118 70t162.5 26q92 0 163 -25t117.5 -68t76.5 -105t42.5 -132.5t12.5 -154.5t-12.5 -155.5t-43 -135.5t-77 -108.5t-117.5 -70.5t-162 -26t-162.5 26t-118 70t-77 108t-43.5 135.5t-13 156.5zM236 473q0 -88 13.5 -156 t44 -122.5t85 -83.5t131.5 -29q78 0 132 28t84 82.5t43 122t13 158.5q0 90 -13.5 157t-44 119t-84 78.5t-130.5 26.5q-274 0 -274 -381zM358 1085l197 240h152l-242 -240h-107z" />
<glyph unicode="&#xf4;" horiz-adv-x="1017" d="M96 473q0 80 13 149.5t43.5 132.5t77 107t118 70t162.5 26q92 0 163 -25t117.5 -68t76.5 -105t42.5 -132.5t12.5 -154.5t-12.5 -155.5t-43 -135.5t-77 -108.5t-117.5 -70.5t-162 -26t-162.5 26t-118 70t-77 108t-43.5 135.5t-13 156.5zM236 473q0 -88 13.5 -156 t44 -122.5t85 -83.5t131.5 -29q78 0 132 28t84 82.5t43 122t13 158.5q0 90 -13.5 157t-44 119t-84 78.5t-130.5 26.5q-274 0 -274 -381zM272 1100l183 225h118l179 -225h-111l-127 143l-131 -143h-111z" />
<glyph unicode="&#xf5;" horiz-adv-x="1017" d="M96 473q0 80 13 149.5t43.5 132.5t77 107t118 70t162.5 26q92 0 163 -25t117.5 -68t76.5 -105t42.5 -132.5t12.5 -154.5t-12.5 -155.5t-43 -135.5t-77 -108.5t-117.5 -70.5t-162 -26t-162.5 26t-118 70t-77 108t-43.5 135.5t-13 156.5zM209 1135q34 78 74 107.5t112 29.5 q37 0 100.5 -38t90.5 -38q63 0 90 84l90 -41q-22 -61 -67 -98t-109 -37q-40 0 -103.5 40t-93.5 40q-67 0 -94 -88zM236 473q0 -88 13.5 -156t44 -122.5t85 -83.5t131.5 -29q78 0 132 28t84 82.5t43 122t13 158.5q0 90 -13.5 157t-44 119t-84 78.5t-130.5 26.5 q-274 0 -274 -381z" />
<glyph unicode="&#xf6;" horiz-adv-x="1017" d="M96 473q0 80 13 149.5t43.5 132.5t77 107t118 70t162.5 26q92 0 163 -25t117.5 -68t76.5 -105t42.5 -132.5t12.5 -154.5t-12.5 -155.5t-43 -135.5t-77 -108.5t-117.5 -70.5t-162 -26t-162.5 26t-118 70t-77 108t-43.5 135.5t-13 156.5zM236 473q0 -88 13.5 -156 t44 -122.5t85 -83.5t131.5 -29q78 0 132 28t84 82.5t43 122t13 158.5q0 90 -13.5 157t-44 119t-84 78.5t-130.5 26.5q-274 0 -274 -381zM283 1135v149h133v-149h-133zM592 1135v149h133v-149h-133z" />
<glyph unicode="&#xf7;" d="M72 391v111h854v-111h-854zM420 33v170h160v-170h-160zM420 715v170h160v-170h-160z" />
<glyph unicode="&#xf8;" horiz-adv-x="1017" d="M27 37l129 135q-60 117 -60 301q0 80 13 149.5t43.5 132.5t77 107t118 70t162.5 26q181 0 278 -100l117 125l94 -90l-129 -139q52 -112 52 -281q0 -84 -12.5 -155.5t-43 -135.5t-77 -108.5t-117.5 -70.5t-162 -26q-169 0 -270 91l-117 -123zM236 473q0 -115 24 -188 l445 483q-67 86 -195 86q-274 0 -274 -381zM324 158q66 -76 186 -76q78 0 132 28t84 82.5t43 122t13 158.5q0 101 -16 166z" />
<glyph unicode="&#xf9;" horiz-adv-x="989" d="M143 346v590h133v-582q0 -48 4 -84t16.5 -73t33.5 -61t58.5 -39t88.5 -15q83 0 143.5 60t90.5 139v655h133v-737q0 -45 9 -110.5t11 -88.5h-116l-31 139q-3 -3 -21.5 -26t-30 -36t-36 -34.5t-47 -34t-55.5 -22t-68 -9.5q-170 0 -243 97.5t-73 271.5zM279 1325h151 l197 -240h-107z" />
<glyph unicode="&#xfa;" horiz-adv-x="989" d="M111 346v590h133v-582q0 -48 4 -84t16 -73t33.5 -61t58.5 -39t88 -15q44 0 83.5 18.5t68 49t48.5 63.5t34 68v655h133v-737q0 -45 9 -110.5t11 -88.5h-116l-31 139q-3 -3 -21.5 -26t-30 -36t-36 -34.5t-47 -34t-55.5 -22t-68 -9.5q-88 0 -150.5 27t-97.5 77.5t-51 115.5 t-16 149zM307 1085l197 240h151l-241 -240h-107z" />
<glyph unicode="&#xfb;" horiz-adv-x="989" d="M143 346v590h133v-582q0 -48 4 -84t16.5 -73t33.5 -61t58.5 -39t88.5 -15q83 0 143.5 60t90.5 139v655h133v-737q0 -45 9 -110.5t11 -88.5h-116l-31 139q-3 -3 -21.5 -26t-30 -36t-36 -34.5t-47 -34t-55.5 -22t-68 -9.5q-170 0 -243 97.5t-73 271.5zM256 1100l182 225 h119l178 -225h-110l-127 143l-131 -143h-111z" />
<glyph unicode="&#xfc;" horiz-adv-x="989" d="M143 346v590h133v-582q0 -48 4 -84t16.5 -73t33.5 -61t58.5 -39t88.5 -15q83 0 143.5 60t90.5 139v655h133v-737q0 -45 9 -110.5t11 -88.5h-116l-31 139q-3 -3 -21.5 -26t-30 -36t-36 -34.5t-47 -34t-55.5 -22t-68 -9.5q-170 0 -243 97.5t-73 271.5zM272 1135v149h134 v-149h-134zM582 1135v149h133v-149h-133z" />
<glyph unicode="&#xfd;" horiz-adv-x="995" d="M82 936h143l299 -743l254 743h135l-391 -1086q-41 -113 -101.5 -174t-182.5 -104l-43 117q146 40 180 133l82 217zM348 1085l197 240h151l-241 -240h-107z" />
<glyph unicode="&#xfe;" horiz-adv-x="1005" d="M125 -369q8 77 13 303t5 353v1059h133v-549q37 62 112.5 111.5t160.5 49.5q96 0 167 -38.5t112.5 -107t61 -153.5t19.5 -186q0 -103 -23 -191t-69.5 -157t-124 -108.5t-178.5 -39.5q-80 0 -144 39t-100 95l-28 -480h-117zM272 225q82 -143 230 -143q135 0 201.5 99 t66.5 288q0 200 -67 292.5t-179 92.5q-44 0 -83 -16t-64 -36.5t-48.5 -52.5t-33.5 -51t-23 -45v-428z" />
<glyph unicode="&#xff;" horiz-adv-x="995" d="M82 936h143l299 -743l254 743h135l-391 -1086q-41 -113 -101.5 -174t-182.5 -104l-43 117q146 40 180 133l82 217zM293 1149v149h133v-149h-133zM602 1149v149h133v-149h-133z" />
<glyph unicode="&#x152;" horiz-adv-x="1918" d="M129 657q0 121 18.5 222.5t61.5 189.5t108 149t163 95.5t222 34.5q93 0 183 -23h870v-117h-678q148 -133 162 -465h473v-116h-471q-4 -356 -158 -510h691v-117h-859q-96 -35 -215 -35q-129 0 -228 34.5t-163.5 94.5t-105 149t-57.5 190t-17 224zM285 657q0 -136 21 -238 t68 -179.5t128.5 -117.5t197.5 -40q91 0 159.5 28t111.5 76t69.5 122.5t36.5 157.5t10 191q0 111 -10.5 195.5t-37 158t-70 120.5t-111 73.5t-158.5 26.5q-116 0 -197.5 -39.5t-128.5 -117t-68 -179.5t-21 -238z" />
<glyph unicode="&#x153;" horiz-adv-x="1665" d="M96 473q0 80 13 149.5t43.5 132.5t77 107t118 70t162.5 26q257 0 344 -206q91 206 313 206q93 0 163 -26t114.5 -71t71.5 -114t38 -147t11 -178h-645q10 -342 272 -342q132 0 283 80l41 -111q-154 -72 -340 -72q-235 0 -324 207q-88 -207 -342 -207q-91 0 -162.5 26 t-118 70t-77 108t-43.5 135.5t-13 156.5zM236 473q0 -88 13.5 -156t44 -122.5t85 -83.5t131.5 -29q78 0 132 28t84 82.5t43 122t13 158.5q0 90 -13.5 157t-44 119t-84 78.5t-130.5 26.5q-274 0 -274 -381zM918 526h514q-3 168 -67 248t-196 80q-111 0 -177.5 -84.5 t-73.5 -243.5z" />
<glyph unicode="&#x178;" horiz-adv-x="1150" d="M33 1325h170l387 -598l371 598h157l-461 -729v-596h-149v588zM375 1479v151h131v-151h-131zM680 1479v151h131v-151h-131z" />
<glyph unicode="&#x2c6;" horiz-adv-x="425" d="M-27 1100l183 225h118l179 -225h-111l-127 143l-131 -143h-111z" />
<glyph unicode="&#x2dc;" horiz-adv-x="425" d="M-66 1135q34 78 74.5 107.5t112.5 29.5q37 0 100 -38t90 -38q63 0 90 84l91 -41q-21 -60 -67 -97.5t-110 -37.5q-40 0 -103 40t-93 40q-67 0 -94 -88z" />
<glyph unicode="&#x2000;" horiz-adv-x="855" />
<glyph unicode="&#x2001;" horiz-adv-x="1710" />
<glyph unicode="&#x2002;" horiz-adv-x="855" />
<glyph unicode="&#x2003;" horiz-adv-x="1710" />
<glyph unicode="&#x2004;" horiz-adv-x="570" />
<glyph unicode="&#x2005;" horiz-adv-x="427" />
<glyph unicode="&#x2006;" horiz-adv-x="285" />
<glyph unicode="&#x2007;" horiz-adv-x="285" />
<glyph unicode="&#x2008;" horiz-adv-x="213" />
<glyph unicode="&#x2009;" horiz-adv-x="342" />
<glyph unicode="&#x200a;" horiz-adv-x="95" />
<glyph unicode="&#x2010;" horiz-adv-x="669" d="M59 438v119h551v-119h-551z" />
<glyph unicode="&#x2011;" horiz-adv-x="669" d="M59 438v119h551v-119h-551z" />
<glyph unicode="&#x2012;" horiz-adv-x="669" d="M59 438v119h551v-119h-551z" />
<glyph unicode="&#x2013;" horiz-adv-x="1024" d="M-2 430v119h1028v-119h-1028z" />
<glyph unicode="&#x2014;" horiz-adv-x="2048" d="M-2 424v125h2052v-125h-2052z" />
<glyph unicode="&#x2018;" horiz-adv-x="499" d="M92 942l203 385h102l-174 -385h-131z" />
<glyph unicode="&#x2019;" horiz-adv-x="499" d="M98 940l172 385h133l-198 -385h-107z" />
<glyph unicode="&#x201a;" horiz-adv-x="499" d="M98 -180l172 385h133l-198 -385h-107z" />
<glyph unicode="&#x201c;" horiz-adv-x="745" d="M82 942l203 385h102l-174 -385h-131zM358 942l201 385h105l-175 -385h-131z" />
<glyph unicode="&#x201d;" horiz-adv-x="745" d="M82 940l174 385h131l-201 -385h-104zM356 940l174 385h134l-203 -385h-105z" />
<glyph unicode="&#x201e;" horiz-adv-x="745" d="M82 -180l174 385h131l-201 -385h-104zM356 -180l174 385h134l-203 -385h-105z" />
<glyph unicode="&#x2022;" d="M238 664q0 109 76.5 184.5t185.5 75.5t184.5 -75.5t75.5 -184.5t-76 -186t-184 -77q-110 0 -186 76.5t-76 186.5z" />
<glyph unicode="&#x2026;" horiz-adv-x="1497" d="M170 0v170h160v-170h-160zM670 0v170h157v-170h-157zM1167 0v170h160v-170h-160z" />
<glyph unicode="&#x202f;" horiz-adv-x="342" />
<glyph unicode="&#x2039;" horiz-adv-x="499" d="M86 553l190 373h132l-199 -369l197 -369h-130z" />
<glyph unicode="&#x203a;" horiz-adv-x="499" d="M98 926h131l191 -373l-191 -365h-129l197 369z" />
<glyph unicode="&#x205f;" horiz-adv-x="427" />
<glyph unicode="&#x2122;" horiz-adv-x="1847" d="M170 1251v74h559v-74h-233v-655h-97v655h-229zM831 598v727h142l260 -604l262 604h135v-727h-92v631l-272 -631h-74l-272 631v-631h-89z" />
<glyph unicode="&#xe000;" horiz-adv-x="931" d="M0 0v932h932v-932h-932z" />
<glyph unicode="&#xfb01;" horiz-adv-x="917" d="M31 831v105h141v100q0 263 303 326l45 -115q-116 -21 -165.5 -65t-49.5 -135v-111h172v-105h-172v-831h-133v831h-141zM631 1165v160h147v-160h-147zM637 0v936h135v-936h-135z" />
<glyph unicode="&#xfb02;" horiz-adv-x="917" d="M31 831v105h141v100q0 263 303 326l45 -115q-116 -21 -165.5 -65t-49.5 -135v-111h172v-105h-172v-831h-133v831h-141zM641 0v1346h133v-1346h-133z" />
</font>
</defs>
</svg>
